General
Complete name : Vicky Vette from Hot MILF.avi
Format : AVI
Format/Info : Audio Video Interleave
File size : 195 MiB
Duration : 20mn 35s
Overall bit rate : 1 326 Kbps

Video
ID : 0
Format : AVC
Format/Info : Advanced Video Codec
Format profile : Baseline@L3.0
Format settings, CABAC : No
Format settings, ReFrames : 1 frame
Codec ID : H264
Duration : 20mn 35s
Bit rate mode : Variable
Bit rate : 1 181 Kbps
Maximum bit rate : 1 702 Kbps
Width : 624 pixels
Height : 480 pixels
Display aspect ratio : 1.300
Frame rate : 25.000 fps
Original frame rate : 24.000 fps
Color space : YUV
Chroma subsampling : 4:2:0
Bit depth : 8 bits
Scan type : Progressive
Bits/(Pixel*Frame) : 0.158
Stream size : 174 MiB (89%)

Audio
ID : 1
Format : MPEG Audio
Format version : Version 1
Format profile : Layer 3
Mode : Joint stereo
Mode extension : MS Stereo
Codec ID : 55
Codec ID/Hint : MP3
Duration : 20mn 35s
Bit rate mode : Constant
Bit rate : 128 Kbps
Channel(s) : 2 channels
Sampling rate : 44.1 KHz
Compression mode : Lossy
Delay relative to video : 3ms
Stream size : 18.8 MiB (10%)
Alignment : Aligned on interleaves
Interleave, duration : 26 ms (0.65 video frame)




:le:
Code:
http://www.filesonic.com/file/198273882/Vicky_Vette_from_Hot_MILF.avi