General
Complete name : iak-ifuckedherfinally-110305.wmv
Format : Windows Media
File size : 344 MiB
Duration : 22mn 37s
Overall bit rate mode : Constant
Overall bit rate : 2 124 Kbps
Maximum Overall bit rate : 2 132 Kbps
Encoded date : UTC 2010-11-09 22:13:09.755

Video
ID : 2
Format : VC-1
Format profile : MP@HL
Codec ID : WMV3
Codec ID/Info : Windows Media Video 9
Codec ID/Hint : WMV3
Description of the codec : Windows Media Video 9 - Professional
Duration : 22mn 37s
Bit rate mode : Constant
Bit rate : 2 048 Kbps
Width : 832 pixels
Height : 464 pixels
Display aspect ratio : 16:9
Frame rate : 30.000 fps
Bit depth : 8 bits
Scan type : Progressive
Compression mode : Lossy
Bits/(Pixel*Frame) : 0.177
Stream size : 331 MiB (96%)
Language : Russian

Audio
ID : 1
Format : WMA
Format version : Version 2
Codec ID : 161
Codec ID/Info : Windows Media Audio
Description of the codec : Windows Media Audio 9.2 - 64 kbps, 48 kHz, stereo 1-pass CBR
Duration : 22mn 37s
Bit rate mode : Constant
Bit rate : 64.0 Kbps
Channel(s) : 2 channels
Sampling rate : 48.0 KHz
Bit depth : 16 bits
Stream size : 10.4 MiB (3%)
Language : Russian











Code:
http://www.filesonic.com/file/208603781/iak-ifuckedherfinally-110305.wmv