Collegerules.com - Streaking The Dorms.wmv







INFO


Format : Windows Media
File size : 303 MiB
Duration : 26mn 41s
Overall bit rate mode : Constant
Overall bit rate : 1 589 Kbps
Maximum Overall bit rate : 1 580 Kbps
Encoded date : UTC 2010-06-06 17:50:36.230
Writing application : TMPGEnc 4.0 XPress Version. 4.7.4.299

Video
ID : 2
Format : VC-1
Format profile : MP@ML
Codec ID : WMV3
Codec ID/Info : Windows Media Video 9
Codec ID/Hint : WMV3
Description of the codec : Windows Media Video 9
Duration : 26mn 41s
Bit rate mode : Constant
Bit rate : 1 250 Kbps
Width : 640 pixels
Height : 360 pixels
Display aspect ratio : 16:9
Frame rate : 29.970 fps
Bit depth : 8 bits
Scan type : Progressive
Bits/(Pixel*Frame) : 0.181
Stream size : 239 MiB (79%)
Language : English (US)

Audio
ID : 1
Format : WMA
Format version : Version 2
Codec ID : 161
Codec ID/Info : Windows Media Audio
Description of the codec : Windows Media Audio 9.2 - 320 kbps, 44 kHz, stereo 1-pass CBR
Duration : 26mn 41s
Bit rate mode : Constant
Bit rate : 320 Kbps
Channel(s) : 2 channels
Sampling rate : 44.1 KHz
Bit depth : 16 bits
Stream size : 61.1 MiB (20%)
Language : English (US)


DOWNLOAD:

Code:
http://www.filesonic.com/file/240540384