Adriana





File size : 418 MiB
Duration : 46mn 16s
Overall bit rate mode : Constant
Overall bit rate : 1 262 Kbps
Maximum Overall bit rate : 1 272 Kbps
Encoded date : UTC 2008-01-24 13:12:45.375

Video
ID : 2
Format : VC-1
Format profile : MP
Codec ID : WMV3
Codec ID/Info : Windows Media Video 9
Codec ID/Hint : WMV3
Description of the codec : Windows Media Video 9 - Professional
Duration : 46mn 16s
Bit rate mode : Constant
Bit rate : 1 162 Kbps
Width : 640 pixels
Height : 480 pixels
Display aspect ratio : 4:3
Frame rate : 30.000 fps
Bit depth : 8 bits
Scan type : Progressive
Compression mode : Lossy
Bits/(Pixel*Frame) : 0.126
Stream size : 385 MiB (92%)
Language : English (US)

Audio
ID : 1
Format : WMA
Format version : Version 2
Codec ID : 161
Codec ID/Info : Windows Media Audio
Description of the codec : Windows Media Audio 9.2 - 96 kbps, 44 kHz, stereo (A/V) 1-pass CBR
Duration : 46mn 16s
Bit rate mode : Constant
Bit rate : 96.0 Kbps
Channel(s) : 2 channels
Sampling rate : 44.1 KHz
Bit depth : 16 bits
Stream size : 31.8 MiB (8%)
Language : English (US)



Code:
http://www.filesonic.com/file/370386921/adriana.rar