Bangmaid Part Two Big

uploadstation,wupload/mpeg/437mb





bangmaid_part_two_big.mp4
General
Complete name : bangmaid_part_two_big.mp4
Format : MPEG-4
Format profile : Base Media / Version 2
Codec ID : mp42
File size : 438 MiB
Duration : 39mn 43s
Overall bit rate : 1 540 Kbps
Encoded date : UTC 2011-06-13 14:08:15
Tagged date : UTC 2011-06-13 14:08:15
Writing library : Apple QuickTime
Video #1
ID : 1
Format : AVC
Format/Info : Advanced Video Codec
Format profile : Main@L3.0
Format settings, CABAC : No
Format settings, ReFrames : 6 frames
Codec ID : avc1
Codec ID/Info : Advanced Video Coding
Duration : 39mn 43s
Bit rate mode : Variable
Bit rate : 1 504 Kbps
Width : 768 pixels
Height : 432 pixels
Display aspect ratio : 16:9
Frame rate mode : Constant
Frame rate : 29.970 fps
Standard : Component
Resolution : 24 bits
Colorimetry : 4:2:0
Scan type : Progressive
Bits/(Pixel*Frame) : 0.151
Stream size : 427 MiB (98%)
Encoded date : UTC 2011-06-13 14:08:15
Tagged date : UTC 2011-06-12 14:10:42
Audio #2
ID : 2
Format : AAC
Format/Info : Advanced Audio Codec
Format version : Version 4
Format profile : LC
Format settings, SBR : No
Format settings, PS : Yes
Codec ID : 40
Duration : 39mn 43s
Bit rate mode : Variable
Bit rate : 32.0 Kbps
Maximum bit rate : 34.4 Kbps
Channel(s) : 2 channels
Channel positions : Front: L R
Sampling rate : 32.0 KHz
Resolution : 16 bits
Stream size : 9.09 MiB (2%)
Encoded date : UTC 2011-06-13 14:08:15
Tagged date : UTC 2011-06-12 14:10:42





Code:
http://www.wupload.com/file/43636600