Whatever Happened to Miss September (1973)



A disabled businessman has spent all his life making money. When he sees the picture of a young girl, he falls in love with her and hires a detective to find her for him.

Director: Jerry Denby
Writer: Adam Baum
Stars: Kevin Andre, Marcello Bonino and Eric Edwards

Complete name : Whatever Happened to Miss September (1973) ~ Hot Classic .mp4
Format : MPEG-4
Format profile : Base Media
Codec ID : isom
File size : 641 MiB
Duration : 1h 19mn
Overall bit rate : 1 121 Kbps
Encoded date : UTC 2010-08-01 17:40:55
Tagged date : UTC 2010-08-01 17:40:55

Video
ID : 2
Format : AVC
Format/Info : Advanced Video Codec
Format profile : Baseline@L3.0
Format settings, CABAC : No
Format settings, ReFrames : 1 frame
Format settings, GOP : M=1, N=25
Muxing mode : Container profile=Baseline@1.3
Codec ID : avc1
Codec ID/Info : Advanced Video Coding
Duration : 1h 19mn
Bit rate : 1 028 Kbps
Width : 624 pixels
Height : 352 pixels
Display aspect ratio : 16:9
Frame rate mode : Constant
Frame rate : 29.970 fps
Original frame rate : 29.000 fps
Color space : YUV
Chroma subsampling : 4:2:0
Bit depth : 8 bits
Scan type : Progressive
Bits/(Pixel*Frame) : 0.156
Stream size : 588 MiB (92%)
Language : English

Audio
ID : 1
Format : AAC
Format/Info : Advanced Audio Codec
Format profile : LC
Codec ID : 40
Duration : 1h 19mn
Bit rate mode : Constant
Bit rate : 88.5 Kbps
Channel(s) : 2 channels
Channel positions : Front: L R
Sampling rate : 44.1 KHz
Compression mode : Lossy
Stream size : 50.6 MiB (8%)
Language : English










How to Download ???
1. Click on the download links
2. Wait for few seconds and then click on button SKIP AD


Free Download with Mediafire or Jumbofiles:

http://q.gs/yeSV
http://q.gs/yeSX
http://q.gs/yeSZ
http://q.gs/yeSb

http://q.gs/yeT4
http://q.gs/yeT6
http://q.gs/yeT8
http://q.gs/yeT9