Czechstreets 17




Complete name : Czechstreets Siterip\Czechstreets.017.wmv
Format : Windows Media
File size : 362 MiB
Duration : 24mn 7s

Overall bit rate mode : Constant
Overall bit rate : 2 097 Kbps
Maximum Overall bit rate : 2 115 Kbps
Encoded date : UTC 2010-07-06 20:00:11.554

Video
ID : 1
Format : VC-1
Format profile : MP@ML
Codec ID : WMV3
Codec ID/Info : Windows Media Video 9
Codec ID/Hint : WMV3
Description of the codec : Windows Media Video 9 - Professional
Duration : 24mn 7s
Bit rate mode : Constant
Bit rate : 2 000 Kbps
Width : 720 pixels
Height : 576 pixels
Display aspect ratio : 4:3
Frame rate : 25.000 fps
Standard : PAL
Bit depth : 8 bits
Scan type : Progressive
Compression mode : Lossy
Bits/(Pixel*Frame) : 0.193
Stream size : 345 MiB (95%)
Language : Czech

Audio
ID : 2
Format : WMA
Format version : Version 2
Codec ID : 161
Codec ID/Info : Windows Media Audio
Description of the codec : Windows Media Audio 9.2 - 96 kbps, 44 kHz, stereo 1-pass CBR
Duration : 24mn 7s
Bit rate mode : Constant
Bit rate : 96.0 Kbps
Channel(s) : 2 channels
Sampling rate : 44.1 KHz
Bit depth : 16 bits
Stream size : 16.6 MiB (5%)
Language : Czech

http://www.netload.in/datei7HlfdqMLG...ts.017.wmv.htm

http://ul.to/xnvbo5vd/Czechstreets.017.wmv