Mofos - Teens at work 15



Format : MPEG-4
Format profile : Base Media
Codec ID : isom
File size : 286 MiB
Duration : 30mn 54s

Overall bit rate mode : Variable
Overall bit rate : 1 296 Kbps
Writing application : Lavf52.32.0

Video
ID : 1
Format : AVC
Format/Info : Advanced Video Codec
Format profile : High@L3.0
Format settings, CABAC : Yes
Format settings, ReFrames : 3 frames
Codec ID : avc1
Codec ID/Info : Advanced Video Coding
Duration : 30mn 54s
Bit rate : 1 100 Kbps
Width : 640 pixels
Height : 480 pixels
Display aspect ratio : 4:3
Frame rate mode : Constant
Frame rate : 29.970 fps
Color space : YUV
Chroma subsampling : 4:2:0
Bit depth : 8 bits
Scan type : Progressive
Bits/(Pixel*Frame) : 0.119
Stream size : 243 MiB (85%)
Tagged date : UTC 2010-05-27 20:27:23

Audio
ID : 2
Format : AAC
Format/Info : Advanced Audio Codec
Format profile : LC
Codec ID : 40
Duration : 30mn 54s
Bit rate mode : Variable
Bit rate : 128 Kbps
Channel(s) : 2 channels
Channel positions : Front: L R
Sampling rate : 48.0 KHz
Compression mode : Lossy
Stream size : 28.3 MiB (10%)
Tagged date : UTC 2010-05-27 20:27:23


http://ul.to/1yiv6k3d/Mofosteensatwo...anana.0028.mp4