Mofos - Teens at work 20



Format : MPEG-4
Format profile : Base Media
Codec ID : isom
File size : 340 MiB
Duration : 38mn 39s

Overall bit rate mode : Variable
Overall bit rate : 1 231 Kbps
Encoded date : UTC 2008-08-29 13:45:59
Tagged date : UTC 2008-08-29 13:45:59

Video
ID : 1
Format : AVC
Format/Info : Advanced Video Codec
Format profile : Baseline@L1.3
Format settings, CABAC : No
Format settings, ReFrames : 1 frame
Codec ID : avc1
Codec ID/Info : Advanced Video Coding
Duration : 38mn 39s
Bit rate : 1 100 Kbps
Maximum bit rate : 1 894 Kbps
Width : 640 pixels
Height : 480 pixels
Display aspect ratio : 4:3
Frame rate mode : Constant
Frame rate : 25.000 fps
Color space : YUV
Chroma subsampling : 4:2:0
Bit depth : 8 bits
Scan type : Progressive
Bits/(Pixel*Frame) : 0.143
Stream size : 304 MiB (89%)
Tagged date : UTC 2008-08-29 13:46:20

Audio
ID : 2
Format : AAC
Format/Info : Advanced Audio Codec
Format profile : LC
Codec ID : 40
Duration : 38mn 39s
Bit rate mode : Variable
Bit rate : 128 Kbps
Maximum bit rate : 206 Kbps
Channel(s) : 2 channels
Channel positions : Front: L R
Sampling rate : 48.0 KHz
Compression mode : Lossy
Stream size : 35.4 MiB (10%)
Encoded date : UTC 2008-08-29 13:46:18
Tagged date : UTC 2008-08-29 13:46:20


http://ul.to/3au958hx/Mofosteensatwo...anana.0038.mp4