Stockings and Lace (2012)



Eve Angel, Sandra Shine, Vera, Nesty, Cindy Hope, Lexi Lowe, Colette, Alexa Candy, Nicole Swee


Complete name : Stockings and Lace.wmv
Format : Windows Media
File size : 1.59 GiB
Duration : 1h 41mn
Overall bit rate : 2 236 Kbps
Maximum Overall bit rate : 2 202 Kbps
Encoded date : UTC 2011-12-02 11:23:01.000
Writing application : Flip4Mac WMV Export Component for QuickTime (Mac) 2354

Video
ID : 2
Format : VC-1
Format profile : MP
Codec ID : WMV3
Codec ID/Info : Windows Media Video 9
Codec ID/Hint : WMV3
Description of the codec : Windows Media Video V9 - 640 x 360, 25.00 fps, 2000 kbps (CBR)
Duration : 1h 41mn
Bit rate : 1 946 Kbps
Width : 640 pixels
Height : 360 pixels
Display aspect ratio : 16:9
Frame rate : 25.000 fps
Bit depth : 8 bits
Scan type : Progressive
Compression mode : Lossy
Bits/(Pixel*Frame) : 0.338
Stream size : 1.38 GiB (87%)
Language : English (US)

Audio
ID : 1
Format : WMA
Format version : Version 2
Codec ID : 161
Codec ID/Info : Windows Media Audio
Description of the codec : Windows Media Audio V9 Standard - 256 kbps, 44 kHz, 16 bit, Stereo (CBR)
Duration : 1h 41mn
Bit rate mode : Constant
Bit rate : 256 Kbps
Channel(s) : 2 channels
Sampling rate : 44.1 KHz
Bit depth : 16 bits
Stream size : 186 MiB (11%)
Language : English (US)







http://www.netload.in/dateiwLxVEXvPW...nana.Stockings and Lace.wmv.htm

http://ul.to/08dp7t9o/TeenBanana.Stockings and Lace.wmv

http://depositfiles.com/files/7ivry6bd4