Mofos - Teens at work 07




Format : MPEG-4
Format profile : Base Media
Codec ID : isom
File size : 305 MiB
Duration : 33mn 52s

Overall bit rate mode : Variable
Overall bit rate : 1 258 Kbps
Encoded date : UTC 2008-09-30 19:07:24
Tagged date : UTC 2008-09-30 19:07:24

Video
ID : 1
Format : AVC
Format/Info : Advanced Video Codec
Format profile : Baseline@L1.3
Format settings, CABAC : No
Format settings, ReFrames : 1 frame
Codec ID : avc1
Codec ID/Info : Advanced Video Coding
Duration : 33mn 52s
Bit rate : 1 100 Kbps
Maximum bit rate : 1 867 Kbps
Width : 640 pixels
Height : 480 pixels
Display aspect ratio : 4:3
Frame rate mode : Constant
Frame rate : 25.000 fps
Color space : YUV
Chroma subsampling : 4:2:0
Bit depth : 8 bits
Scan type : Progressive
Bits/(Pixel*Frame) : 0.143
Stream size : 266 MiB (87%)
Tagged date : UTC 2008-09-30 19:08:55

Audio
ID : 2
Format : AAC
Format/Info : Advanced Audio Codec
Format profile : LC
Codec ID : 40
Duration : 33mn 52s
Bit rate mode : Variable
Bit rate : 156 Kbps
Maximum bit rate : 186 Kbps
Channel(s) : 2 channels
Channel positions : Front: L R
Sampling rate : 48.0 KHz
Compression mode : Lossy
Stream size : 37.7 MiB (12%)
Encoded date : UTC 2008-09-30 19:08:30
Tagged date : UTC 2008-09-30 19:08:55


http://ul.to/1h8ca80c/Mofosteensatwo...anana.0012.mp4