Mofos - Teens at work 09



Format : MPEG-4
Format profile : Base Media
Codec ID : isom
File size : 294 MiB
Duration : 33mn 13s

Overall bit rate mode : Variable
Overall bit rate : 1 236 Kbps
Encoded date : UTC 2008-08-29 16:03:24
Tagged date : UTC 2008-08-29 16:03:24

Video
ID : 1
Format : AVC
Format/Info : Advanced Video Codec
Format profile : Baseline@L1.3
Format settings, CABAC : No
Format settings, ReFrames : 1 frame
Codec ID : avc1
Codec ID/Info : Advanced Video Coding
Duration : 33mn 13s
Bit rate : 1 100 Kbps
Maximum bit rate : 2 015 Kbps
Width : 640 pixels
Height : 480 pixels
Display aspect ratio : 4:3
Frame rate mode : Constant
Frame rate : 25.000 fps
Color space : YUV
Chroma subsampling : 4:2:0
Bit depth : 8 bits
Scan type : Progressive
Bits/(Pixel*Frame) : 0.143
Stream size : 261 MiB (89%)
Tagged date : UTC 2008-08-29 16:03:41

Audio
ID : 2
Format : AAC
Format/Info : Advanced Audio Codec
Format profile : LC
Codec ID : 40
Duration : 33mn 13s
Bit rate mode : Variable
Bit rate : 132 Kbps
Maximum bit rate : 158 Kbps
Channel(s) : 2 channels
Channel positions : Front: L R
Sampling rate : 48.0 KHz
Compression mode : Lossy
Stream size : 31.6 MiB (11%)
Encoded date : UTC 2008-08-29 16:03:40
Tagged date : UTC 2008-08-29 16:03:41


http://ul.to/pcxt0zma/Mofosteensatwo...anana.0016.mp4