Die Gierigen



File size : 1.38 GiB

====


Complete name : Die Gierigen.wmv
Format : Windows Media
File size : 1.38 GiB
Duration : 1h 18mn
Overall bit rate mode : Constant
Overall bit rate : 2 506 Kbps
Maximum Overall bit rate : 2 516 Kbps
Encoded date : UTC 2012-01-19 08:30:56.892

Video
ID : 2
Format : VC-1
Format profile : MP
Codec ID : WMV3
Codec ID/Info : Windows Media Video 9
Codec ID/Hint : WMV3
Description of the codec : Windows Media Video 9 - Professional
Duration : 1h 18mn
Bit rate mode : Constant
Bit rate : 2 430 Kbps
Width : 768 pixels
Height : 576 pixels
Display aspect ratio : 4:3
Frame rate : 25.000 fps
Bit depth : 8 bits
Scan type : Progressive
Compression mode : Lossy
Bits/(Pixel*Frame) : 0.220
Stream size : 1.34 GiB (97%)
Language : English

Audio
ID : 1
Format : WMA
Format version : Version 2
Codec ID : 161
Codec ID/Info : Windows Media Audio
Description of the codec : Windows Media Audio 9.1 - 64 kbps, 48 kHz, stereo (A/V) 1-pass CBR
Duration : 1h 18mn
Bit rate mode : Constant
Bit rate : 64.0 Kbps
Channel(s) : 2 channels
Sampling rate : 48.0 KHz
Bit depth : 16 bits
Stream size : 36.1 MiB (3%)
Language : English







http://www.netload.in/dateidOYB2Bk15T/TeenBanana.Die Gierigen.wmv.htm

http://ul.to/m47ggstq/TeenBanana.Die Gierigen.wmv

http://depositfiles.com/files/tvr4c5f6g